#TITLE:Baby Baby Gimme Your Love;
#SUBTITLE:(2002 Epic Vocal Remix);
#ARTIST:Divas;
#TITLETRANSLIT:;
#SUBTITLETRANSLIT:;
#ARTISTTRANSLIT:;
#CREDIT:;
#BANNER:Baby Love-banner.png;
#BACKGROUND:Baby Love-bg.png;
#LYRICSPATH:;
#CDTITLE:;
#MUSIC:Baby Baby Gimme your love 2002.mp3;
#MUSICLENGTH:91.924;
#OFFSET:-0.500;
#SAMPLESTART:49.965;
#SAMPLELENGTH:12.000;
#SELECTABLE:YES;
#BPMS:0.000=96.000;
#STOPS:;
#BGCHANGES:;
#FIRSTBEAT:8.000;

#LASTBEAT:143.500;

#SONGFILENAME:Songs/ERICth MIX 2nd Style/baby love/baby love.sm;

#HASMUSIC:1;

#HASBANNER:1;


//---------------dance-single - MANIAC----------------
#NOTES:
     dance-single:
     MANIAC:
     hard:
     8:
     0.466,0.506,0.218,0.076,0.549,273.000,20.000,7.000,0.000,0.000:

0000
0000
0000
0000
,
0000
0000
0000
0000
,
0010
1000
0100
1000
0000
0000
0010
0000
0001
0000
1000
0001
0000
1000
0001
0000
,
0100
0001
0100
0001
0000
0000
0020
0000
0000
0000
0000
0000
0030
0000
0000
0000
,
1100
0011
0101
1010
,
1000
0000
0100
0000
0010
0000
0001
0000
0100
0000
0010
1000
0000
0001
0000
1000
,
0000
0000
0000
0000
0000
0000
0010
0001
0010
0000
0001
1000
0000
0100
0000
0100
,
0000
0000
0000
0100
1000
0010
0100
0001
,
1000
0000
0000
0000
0001
0000
0000
1000
0001
0000
0000
1000
0001
0000
0000
1000
,
0001
0000
1001
0000
1000
0010
0001
0010
,
1000
0000
0000
0000
0010
0000
0000
0001
1000
0000
0000
0001
1000
0000
0000
0000
,
0001
1000
0001
1000
0000
0000
0000
0000
1100
0000
0000
0000
0011
0000
0000
0000
,
1000
0000
0010
0000
1000
0000
0000
1000
0001
0000
0000
0001
0100
0000
0000
0100
,
0010
0100
0010
0100
0000
0000
0000
0000
0100
0000
0010
0000
0001
0000
0010
0000
,
0100
0000
0000
0100
1000
0000
0000
0000
1000
0100
1000
0001
0000
0000
0000
0000
,
1001
0000
0000
1001
0000
0000
0010
0000
0100
0000
0010
0000
1001
0000
0000
0000
,
1000
0100
0001
0100
1000
0010
0000
0010
,
1010
0000
0000
0011
0000
0000
1010
0000
0000
0000
0001
0001
0001
0000
0000
0000
,
0100
0100
1000
1000
0010
0000
0001
0000
,
0100
1001
0220
0330
,
1000
0100
0010
0001
0000
0000
0001
0000
1000
0100
0010
0001
0000
0000
0001
0000
,
1000
0100
0010
0001
0000
0000
0001
0000
0000
0000
1000
0100
1000
0100
1000
0000
,
1000
0001
1000
0001
0000
0000
0001
1000
0001
0000
0100
0001
0000
1000
0010
0000
,
0100
0000
0010
0100
0000
0000
0100
0000
0000
0000
0010
1000
0001
1000
0100
0000
,
1000
0100
0010
0001
0000
0000
0001
0000
1000
0100
0010
0001
0000
0000
0001
0000
,
1000
0100
0010
0001
0000
0000
0001
0000
0000
0000
1000
0100
1000
0100
1000
0000
,
1000
0001
1000
0001
0000
0000
0001
1000
0001
0000
0100
0001
0000
1000
0010
0000
,
2000
3200
0320
0031
,
0010
1000
0010
1000
0000
1000
0000
1000
0001
1000
0001
1000
0000
1000
0000
1000
,
0100
1000
0100
1000
0000
0000
0100
0010
0100
0010
0001
1000
0100
0010
0001
0000
,
0001
1000
0001
0100
0000
0100
0000
0100
0010
0100
0010
0100
0000
0100
0000
0100
,
0001
1000
0100
1000
0000
0000
0210
0000
0000
0000
0000
0000
0310
0000
0000
0000
,
1001
0000
1000
0001
1000
0000
0000
1000
0001
0000
0010
0001
1000
0100
0000
0000
,
0000
0000
1000
0100
0010
0001
0010
0100
1000
0000
0000
1000
0010
1000
0000
0000
,
1001
0000
0001
1000
0001
1000
0000
0000
0110
0000
0010
0100
0010
0100
0000
0000
,
1001
0000
1000
0100
0010
0000
0000
0100
1000
0000
0000
1000
0001
1000
0000
0000;

//---------------dance-single - ANOTHER----------------
#NOTES:
     dance-single:
     ANOTHER:
     medium:
     5:
     0.280,0.254,0.098,0.033,0.000,168.000,9.000,3.000,0.000,0.000:

0000
0000
0000
0000
,
0000
0000
0000
0000
,
0010
1000
0010
0000
0100
0000
1000
0000
,
0001
1000
0100
0010
0000
0000
0000
0000
,
1001
0001
1000
0001
,
1001
0000
0000
0000
0010
1000
0100
0010
,
0100
0000
0000
0001
1000
0100
0010
0100
,
0010
0000
0000
0000
0001
1000
0001
0100
,
0001
1000
0100
0010
,
0001
0000
1001
0000
0010
0100
0001
1000
,
0100
0000
0000
0000
0001
1000
0100
0001
,
0100
0000
0010
1000
,
0001
0000
1000
0100
0010
0001
0010
0001
,
0010
0000
0000
0000
1000
0100
1000
0100
,
1000
0010
0100
0000
,
0001
0000
1000
0000
0100
0010
0001
0000
,
0001
0010
1000
0001
,
1010
1010
1010
0000
,
0010
1000
0001
0000
0100
0001
0100
0000
,
0010
1000
0100
1000
0010
0000
1000
0000
,
1000
0100
0001
0000
0001
0100
1000
0000
,
1000
0100
0001
0000
0001
1000
0100
0000
,
0100
1000
0001
0000
0100
0010
0100
0001
,
1000
0001
0010
0001
0000
0000
0000
0000
,
1000
0010
0001
0000
0001
0010
1000
0000
,
1000
0010
0001
0000
0001
0010
1000
0000
,
1000
0100
1000
0000
0001
0100
0001
0000
,
0010
0100
0110
0110
,
0010
0000
1000
0001
,
0200
0001
0000
0001
0000
0001
0300
0001
,
0100
0010
1000
0100
,
0020
0100
0000
0100
0000
0100
0030
0100
,
0010
0000
0010
0000
0110
0100
0010
0000
,
0000
0100
0001
1000
,
0100
1000
0010
0000
0001
1000
0010
0000
,
0100
0001
1000
0000
0001
1000
0002
0003;

//---------------dance-single - BASIC----------------
#NOTES:
     dance-single:
     BASIC:
     easy:
     1:
     0.103,0.117,0.109,0.011,0.000,55.000,10.000,1.000,0.000,0.000:

0000
0000
0000
0000
,
0000
0000
0000
0000
,
0010
0000
0000
0000
,
0100
0000
0000
0000
,
0001
1000
0001
1000
,
0001
0000
0000
0000
,
0010
0000
0000
0000
,
0001
0000
0100
0010
,
0100
0010
0100
0010
,
0100
0000
0000
0000
,
1000
0000
0000
0000
,
0110
0000
0001
0000
,
1000
0000
0000
0100
,
0010
0000
0000
0000
,
0110
0000
0000
0010
,
0001
0000
0000
1000
,
0000
0100
0000
0001
,
0000
0010
0000
1000
,
0000
0100
0000
0010
,
0000
0100
0000
0000
,
1001
0000
0000
0000
,
1001
0000
0000
0000
,
1100
0000
0000
0000
,
0011
0000
0000
0000
,
0110
0000
0000
0000
,
0110
0000
0000
0000
,
1010
0000
0000
0000
,
0011
0000
0000
0000
,
0001
0000
0100
0000
,
0010
0000
0000
0000
,
0001
0000
1000
0000
,
0001
0000
0000
0000
,
0020
0000
0000
0000
,
0130
0000
0100
0000
,
1000
0000
0000
0000
,
0001
1000
0001
1000;
